#TITLE:Happy Adventure, Delightful Adventure;
#SUBTITLE:Super Mario RPG;
#ARTIST:SquareSoft;
#TITLETRANSLIT:;
#SUBTITLETRANSLIT:;
#ARTISTTRANSLIT:;
#CREDIT:;
#BANNER:Happy Adventure, Delightful Adventure-bn.jpg;
#BACKGROUND:Happy Adventure, Delightful Adventure-bg.jpg;
#LYRICSPATH:;
#CDTITLE:!Syrus-CDTitle.png;
#MUSIC:Happy Adventure, Delightful Adventure.MP3;
#OFFSET:-0.039;
#SAMPLESTART:16.790;
#SAMPLELENGTH:14.257;
#SELECTABLE:YES;
#BPMS:0.000=138.883;
#STOPS:;
#BGCHANGES:;
// cache tags:
#FIRSTBEAT:7.000;
#LASTBEAT:320.000;
#SONGFILENAME:Songs/Music V.I.P ^_^/Happy Adventure, Delightful Adventure (Syrus)/Happy Adventure, Delightful Adventure.sm;
#HASMUSIC:1;
#HASBANNER:1;
#MUSICLENGTH:138.456;
// end cache tags

//---------------dance-single - ----------------
#NOTES:
     dance-single:
     :
     Hard:
     12:
     1.000,1.000,0.838,0.614,1.000,856.000,116.000,85.000,0.000,0.000:
0000
0000
0000
0000
,
0000
0000
0000
0000
0000
0000
0000
0000
0000
0000
0000
0000
0000
0000
0000
0000
0000
0000
1000
0100
0010
0001
0010
0100
,
0010
0000
0001
0000
0001
0010
0000
0100
0000
1000
0000
0001
0100
0000
1010
0000
,
1000
0000
0001
0000
0100
0010
0000
0010
0000
1000
0000
0100
0010
1100
0012
0003
,
1000
0000
1000
0000
0010
0001
0000
0001
0000
0010
0000
0100
1000
0000
0101
0000
,
1000
0000
0000
0000
0000
0000
0001
0000
0000
0000
0000
0000
0001
0000
0000
1000
0000
0000
0000
0000
0000
1000
0000
0000
0000
0000
0000
0001
0000
0000
0000
0000
0000
1000
0000
0000
1000
0000
0010
0000
0100
0000
0001
0000
0100
0000
0010
0000
,
1000
0000
0100
0000
1000
0000
0001
0010
0000
0001
0000
0100
0000
1000
0001
0000
,
0010
0100
0010
0000
1000
0000
0001
0100
0000
0100
0000
0010
1000
0000
2010
3000
,
0100
0000
0010
0000
0010
0001
0000
0001
0000
0100
0000
0010
0100
0000
0011
0000
,
1000
0000
0000
0000
0000
0000
0100
0000
0000
0000
0000
0000
0100
0000
0000
1000
0000
0000
0000
0000
0000
0001
0000
0000
0000
0000
0000
0100
0000
0000
0000
0000
0000
0010
0000
0000
1000
0000
0100
0000
0010
0000
0001
0000
0100
0000
0010
0000
,
1000
0000
1000
0000
0010
0000
1000
0100
0000
0010
0000
0001
0000
0100
0010
0000
,
0010
1000
0100
0000
0001
0000
1000
0100
0000
0001
0000
0100
0010
0000
1002
0003
,
0100
0000
0100
0000
0001
1000
0000
1000
0000
0001
0000
0100
0010
0000
1010
0000
,
0100
0000
0000
0000
0000
0000
0100
0000
0000
0000
0000
0000
1000
0000
0000
0100
0000
0000
0000
0000
0000
0100
0000
0000
0000
0000
0000
0010
0000
0000
0000
0000
0000
0100
0000
0000
1000
0000
0100
0000
1000
0000
0100
0000
0010
0000
0100
0000
,
0010
0000
0000
0000
0000
0000
0001
0000
0000
0000
0000
0000
0100
0000
0000
0010
0000
0000
0000
0000
0000
0100
0000
0000
0000
0000
0000
0010
0000
0000
0100
0000
0000
0000
0000
0000
0001
0000
0000
0000
0000
0000
0010
0000
0100
0000
1000
0000
,
0010
0000
0000
0000
0000
0000
1000
0000
0000
0000
0000
0000
0010
0000
0000
1000
0000
0000
0010
0000
0000
0100
0000
0000
0000
0000
0000
0001
0000
0000
1000
0000
0000
0000
0000
0000
0001
0000
0000
0000
0000
0000
1000
0000
0100
0000
0010
0000
,
0001
0000
0001
0000
0010
0000
0100
1000
0000
0010
0000
1000
0000
0100
0010
0000
,
0001
0000
0000
0100
0000
0000
0010
0000
0000
0010
0100
0001
1000
0001
1000
0001
1000
0001
1000
0001
1000
0001
1000
0001
,
1000
0000
1000
0000
0100
0010
0000
1000
0000
0001
0000
0010
0100
0000
1001
0000
,
0010
0000
0010
0000
0001
0010
0000
0100
0000
0100
0000
1000
0010
0000
0201
0300
,
1000
0000
0100
0000
1000
0100
0000
1000
0000
0100
0000
0001
0010
0000
0110
0000
,
0001
0000
0000
0000
0000
0000
0001
0000
0000
0000
0000
0000
0100
0000
0000
0010
0000
0000
0000
0000
0000
1000
0000
0000
0000
0000
0000
1000
0000
0000
0000
0000
0000
0001
0000
0000
0100
0000
0000
0000
0000
0000
0101
0000
0010
0000
1000
0000
,
0110
0000
1010
0000
0110
0000
0101
1010
0000
1001
0000
0101
0000
1100
0012
0000
,
1003
0110
1001
0000
1010
0000
1100
1001
0000
0110
0000
0101
0120
0000
2000
3030
,
0010
0000
1000
0100
0010
0001
0010
0100
0000
0100
0000
0100
1000
0100
1000
0100
,
0010
0000
0000
0000
0000
0000
0001
0000
0000
0010
0000
0000
0100
0000
0000
1000
0000
0000
0100
0000
0000
0010
0000
0000
0000
0000
0000
0010
0000
0000
0000
0000
0000
0010
0000
0000
0001
0000
0010
0000
0100
0000
1000
0000
0100
0000
0010
0000
,
0001
0000
0000
0000
0000
0000
0200
0000
0300
0000
0000
0000
2000
0000
3000
0000
0000
0000
0002
0000
0003
0020
0000
0030
0000
0000
0000
0200
0000
0300
0000
0000
0000
0020
0000
0030
0000
0000
0000
0200
0000
0300
2000
0000
3000
0000
0000
0000
,
0020
0000
0030
0002
0000
0003
0020
0000
0030
0000
0000
0000
2000
0000
3000
0000
0000
0000
0200
0000
0300
2000
0000
3000
0000
0000
0000
0020
0000
0030
0000
0000
0000
0020
0000
0030
0200
0000
0300
0000
0000
0000
2002
0000
3003
0000
0000
0000
,
0010
0000
0100
0010
0100
0010
0100
0001
0000
1000
0000
0100
0010
0001
0100
0010
,
1000
0000
0000
0000
0000
0000
0100
0000
0000
0010
0000
0000
0100
0000
0000
1000
0000
0000
0100
0000
0000
0010
0000
0000
0000
0000
0000
0001
0000
0000
0000
0000
0000
1000
0000
0000
0001
0000
0010
0000
0100
0000
1000
0000
0001
0000
1000
0000
,
0200
0000
0300
0000
0000
0000
2000
0000
3000
0000
0000
0000
0002
0000
0003
0200
0000
0300
0000
0000
0000
0020
0000
0030
0000
0000
0000
0200
0000
0300
2000
0000
3000
0000
0000
0000
0200
0000
0300
0000
0000
0000
2000
0000
3200
0000
0320
0000
,
0032
0000
0003
0000
0000
0000
0020
0000
0030
0000
0000
0000
2000
0000
0000
3002
0000
0000
0203
0000
0300
0002
0000
0000
0003
0000
0000
0020
0000
0030
0002
0000
0003
0000
0000
0000
0200
0000
0300
0000
0000
0000
2020
0000
3000
0000
0000
0000
,
2030
0000
3000
0000
0000
0000
0200
0000
0300
0000
0000
0000
2000
0000
3000
0000
0000
0000
0002
0000
0003
0200
0000
0300
0000
0000
0000
0020
0000
0030
0000
0000
0000
2000
0000
0000
3000
0000
0000
0020
0000
0000
2030
0000
0000
0000
0000
0000
,
3200
0000
0300
0020
0030
0000
0200
0300
0000
2002
0000
0000
0000
0000
0000
0000
0000
0000
0000
0000
0000
3003
0000
0000
,
1000
0000
0010
0000
1000
0000
0010
0100
0000
0010
0000
0010
0100
0000
1000
0000
,
0010
0000
0100
0000
0001
0000
0100
0010
0000
0010
0000
0010
0100
0000
0001
0000
,
1000
0000
0100
0000
0001
0000
0100
1000
0000
0001
0000
0100
0010
0000
1000
0000
,
0010
0000
0000
0000
0000
0000
0001
0000
0000
0000
0000
0000
0100
0000
0000
0000
0000
0000
0001
0000
0000
0010
0000
0000
0000
0000
0000
0001
0000
0000
0000
0000
0000
0010
0000
0000
0001
0000
0100
0000
0010
0000
1000
0000
0010
0000
0100
0000
,
0001
0000
0100
0000
0010
0000
1000
0100
0000
0001
0000
0100
0000
0001
0010
0000
,
1000
0000
0000
0100
0000
0000
1000
0000
0000
0000
0000
0000
0100
0000
0000
0000
0000
0000
1000
0000
0000
0100
0010
0000
0001
0000
1000
0000
0100
0000
0010
0000
0100
0000
1000
0000
0010
0000
0100
0000
0001
0000
0100
0000
0010
0000
1000
0000
,
0100
0000
0001
0000
0010
0000
0100
0010
0000
1000
0000
0001
0000
0100
0010
0000
,
0100
0000
0000
1000
0000
0000
0010
0000
0000
0000
0000
0000
0001
0000
0000
0000
0000
0000
1000
0000
0000
0100
0010
0000
0001
0000
0010
0000
0100
0000
1000
0000
0100
0000
0010
0000
0100
0000
1000
0000
0100
0000
0010
0000
0100
0000
0000
0000
,
0010
0000
0001
0000
0010
0000
0001
0000
0010
0000
0001
0000
0011
0000
0000
0100
0000
0000
0000
0000
0000
0100
0000
0000
0000
0000
0000
0010
0000
0000
0000
0000
0000
1000
0000
0000
0001
0000
0010
0000
0100
0000
1000
0000
0000
0000
0000
0000
,
0100
0000
1000
0000
0100
0000
0010
0000
0100
0000
1000
0000
0010
0000
0100
0001
0000
0000
0000
0000
0000
0100
0000
0000
0000
0000
0000
0001
0000
0000
0000
0000
0000
0100
0000
0000
0010
0000
1000
0000
0100
0000
0010
0000
0001
0000
0000
0000
,
0100
0000
0010
0000
1000
0000
0010
0000
1000
0000
0100
0000
0010
0000
0001
1000
0000
0000
0000
0000
0000
0010
0000
0000
0000
0000
0000
1000
0000
0000
0000
0000
0000
0100
0000
0000
0010
0000
0100
0000
0010
0000
0001
0000
0000
0000
0000
0000
,
0120
0030
0000
0000
0210
0300
0000
0000
0000
0000
0120
0000
0030
0000
0210
0300
,
0120
0000
1000
0000
0100
0000
1000
0100
0000
0100
0000
0100
1000
0000
0100
0000
,
1030
0100
0010
0001
0010
0100
1000
0001
0010
0100
1000
0100
1000
0010
0100
0010
1000
0010
0100
0001
0010
0100
1000
0010
,
1001
0000
0110
0000
0101
0000
1010
0000
0210
0300
1010
0101
1010
0000
2001
3000
,
0021
0030
1100
0011
1100
0000
1100
0000
1010
0000
0110
0000
1002
0000
0100
0013
,
0101
0000
0110
0000
0101
0000
1010
0000
0102
0003
1001
0110
1001
0000
2100
3000
,
0201
0300
0101
0110
0101
0000
1001
0000
1100
0000
0011
0000
0220
0000
0330
0000
,
1100
0000
0001
0010
0001
0000
0110
0000
1001
0000
1000
0100
1000
0000
0110
0000
,
1001
0000
0010
0100
0010
0000
0110
0000
1002
0000
0103
0010
1100
0010
0001
0010
,
1100
0000
0000
0000
0000
0000
0010
0000
0000
0100
0000
0000
0001
0000
0100
0000
0001
0000
0110
0000
0000
0000
0000
0000
1001
0000
0000
0000
0000
0000
1000
0000
0000
0100
0000
0000
1000
0000
0010
0000
1000
0000
0110
0000
0000
0000
0000
0000
,
1001
0000
0000
0000
0000
0000
0100
0000
0000
0010
0000
0000
1000
0000
0100
0000
1000
0000
0110
0000
0000
0000
0000
0000
2001
0000
0000
0000
0000
0000
0000
0000
0000
3010
0000
0000
0001
0000
0000
0100
0000
0000
0010
0000
0000
0100
0000
0000
,
0001
0000
1000
0000
0010
0100
0000
1000
0000
0100
0000
0010
0100
0000
0010
0000
,
0100
0000
0001
0010
0100
0010
0000
0001
0000
0100
0000
0001
0120
0000
0000
0000
,
1030
0000
0001
0000
0100
0010
0000
0010
0000
0100
0000
0100
1000
0000
0001
0000
,
1000
0000
0010
0100
0010
0100
0000
0010
0000
0010
1000
0000
0102
0000
0000
0000
,
0103
0000
0001
0000
0100
0001
0000
0100
0000
0010
0000
0001
0010
0000
0001
0000
,
1000
0000
0100
0010
0100
0001
0000
0100
0000
0100
0000
0001
1002
0000
0000
0000
,
1003
0000
0100
0000
0010
0001
0000
0001
0000
0010
0000
0100
0001
0000
0100
0000
,
0010
0000
0100
0010
0100
0010
0000
0010
0000
0100
0001
0000
0210
0000
0000
0000
,
0301
0000
0001
0000
0010
0001
0000
0010
0000
0100
0000
0010
0001
0000
0010
0000
,
0100
0000
0010
0000
1000
0001
0000
1000
0000
0100
0000
0010
1000
0011
2100
3000
,
0010
0000
0100
0000
0010
0100
0000
0001
0000
1000
0000
1000
0100
0000
0010
0000
,
0001
0000
0000
0000
0000
0000
1000
0000
0000
0000
0000
0000
0100
0000
0000
0010
0000
0000
0000
0000
0000
1000
0000
0000
0000
0000
0000
0100
0000
0000
0000
0000
0000
0010
0000
0000
0001
0000
0010
0000
0100
0000
1000
0000
0100
0000
0010
0000
,
0001
0000
0010
0000
0100
0000
0010
0100
0000
0001
0000
0100
0000
0010
0100
0000
,
0001
0010
0001
0000
1000
0000
0010
0100
0000
0001
0000
1000
0010
0000
2010
3000
,
0001
0000
0100
0000
0001
0100
0000
1000
0000
0001
0000
0100
0010
0000
0110
0000
,
1000
0000
0000
0000
0000
0000
0100
0000
0000
0000
0000
0000
0010
0000
0000
0001
0000
0000
0000
0000
0000
0010
0000
0000
0000
0000
0000
0100
0000
0000
0000
0000
0000
1000
0000
0000
0100
0000
0010
0000
0100
0000
1000
0000
0001
0000
0100
0000
,
0011
0000
1010
0000
0011
0000
1100
1010
0000
1100
0000
1010
0000
1001
0110
0000
,
1010
0110
1010
0000
1001
0000
0011
1100
0000
0110
0000
1100
0011
0000
1002
0003
,
1000
0000
0100
0000
1000
0001
0000
0010
0000
0100
0000
0010
0100
0000
0011
0000
,
0100
0000
0000
0000
0000
0000
0100
0000
0000
0000
0000
0000
1000
0000
0000
0100
0000
0000
0000
0000
0000
0010
0000
0000
0000
0000
0000
0010
0000
0000
0000
0000
0000
0001
0000
0000
1000
0000
0100
0000
1000
0000
0100
0000
1000
0000
0010
0000
,
0100
0000
0000
0000
0000
0000
0001
0000
0000
0000
0000
0000
0001
0000
0000
0010
0000
0000
0000
0000
0000
0100
0000
0000
0000
0000
0000
0010
0000
0000
0100
0000
0000
0000
0000
0000
1000
0000
0000
0000
0000
0000
0100
0000
0010
0000
0001
0000
,
1000
0000
0000
0000
0000
0000
1000
0000
0000
0000
0000
0000
0100
0000
0000
0010
0000
0000
1000
0000
0000
0010
0000
0000
0000
0000
0000
0100
0000
0000
0010
0000
0000
0000
0000
0000
0001
0000
0000
0000
0000
0000
0100
0000
0001
0000
1000
0000
,
0010
0000
0100
0000
0010
0000
0100
1000
0000
0100
0000
1000
0000
0100
0010
0000
,
0001
0000
0000
0010
0000
0000
0100
0000
0000
1000
0100
0010
0001
0010
0100
1000
0010
0100
0010
0100
0001
0100
0010
1000
,
0110
0000
0000
0000
;
